Skip to main content

Club d'Elf Live at Lizard Lounge on 2010-05-06




Disc 1:
Set 1:

01 Intro
02 Quilty
03 Wist
04 In A Silent Way
05 Big Light in the Sky

Disc 2:
Set 1 cont...

06 crowd/band introductions
07 Zeed Al Maal
08 Life Of The Mind
09 crowd/band introductions

Disc 3:
Set 2:

01 Intro
02 Scorpionic
03 As Above
04 Berber Song
05 crowd/band introductions


Collection ClubdElf
Band/Artist Club d'Elf
Venue Lizard Lounge
Location Cambridge, MA

Source Schoeps MK 22>KC5>CMC6>Sonosax SX-M2>Apogee Mini-me(24 Bit/96 khz,aes out)>COAX>Edirol R-44 +Soundboard>Channels 3&4 Edirol R-44
Lineage SD-HC Card>USB>Vegas Pro 8(mixing)>Soundforge 10(tracking,resample/dither to 16bit/44.1khz)>FLAC (sector alignment,Level 8)
Taped by Andy Murray
Transferred by Andy Murray

Notes

Club d'Elf
2010-05-06
Lizard Lounge
Cambridge, MA

Recorded and transferred by Andy Murray

21cm ORTF On stage DFC
Schoeps MK22>KC5>CMC6>Sonosax SX-M2>Apogee Mini-me(aes out@24 bit/96khz)>COAX>Edirol R-44+
Soundboard feed>R-44
SD-HC Card>USB>Vegas Pro 8(mixing)>Soundforge 10(tracking,normalize,resample/dither to 16bit/44.1khz)>FLAC Level 8(sector alignment)

Mike Rivard - Bass
Alain Mallet - keys
Paul Schulteis - keys
DJ Mr. Rourke - turntables
Dean Johnston - Drums
Vicente Lebron - percussion
? - Trumpet
Adil Rizki - vocals

plus a few others on random percussion

2 Sets
3 Discs

length expanded size cdr WAVE problems filename
0:47.25 8349644 --- -- ----- delf2010-05-06_mk22matrix_1644_d1t01.wav
15:25.65 163322924 --- -- ----- delf2010-05-06_mk22matrix_1644_d1t02.wav
13:23.45 141755084 --- -- ----- delf2010-05-06_mk22matrix_1644_d1t03.wav
35:17.70 373603484 --- -- ----- delf2010-05-06_mk22matrix_1644_d1t04.wav
14:06.40 149328524 --- -- ----- delf2010-05-06_mk22matrix_1644_d1t05.wav
3:04.74 32631692 --- -- ----- delf2010-05-06_mk22matrix_1644_d2t01.wav
9:39.08 102154460 --- -- ----- delf2010-05-06_mk22matrix_1644_d2t02.wav
15:39.70 165804284 --- -- ----- delf2010-05-06_mk22matrix_1644_d2t03.wav
0:44.53 7886300 --- -- ----- delf2010-05-06_mk22matrix_1644_d2t04.wav
0:19.72 3520988 --- -- ----- delf2010-05-06_mk22matrix_1644_d3t01.wav
25:54.71 274292636 --- -- ----- delf2010-05-06_mk22matrix_1644_d3t02.wav
12:11.06 128962556 --- -- ----- delf2010-05-06_mk22matrix_1644_d3t03.wav
9:43.04 102850652 --- -- ----- delf2010-05-06_mk22matrix_1644_d3t04.wav
1:39.06 17477756 --- -- ----- delf2010-05-06_mk22matrix_1644_d3t05.wav
157:58.09 1671940984 B (totals for 14 files, 1.0000 overall compression ratio)

Reviews

Reviewer: spwal - - May 11, 2010
Subject: thank you
great, chill show.. double keyboards and some trumpet wizardry as well. Excellent!
PEOPLE ALSO FOUND
Club d'Elf
by Club d'Elf
68
0
0
Source: Schoeps MK22>KC5>CMC6>Sonosax SX-M2>Apogee Mini-me(aes out@24 bit/96khz)>COAX>Edirol R-44 + Soundboard feed>R-44
Club d'Elf
by Club d'Elf
68
0
0
Source: Schoeps MK22>KC5>CMC6>Sonosax SX-M2>Apogee Mini-me(@24 Bit 96khz aes out)>COAX>Edirol R-44
Club d'Elf
by Club d'Elf
81
0
0
Source: Schoeps MK 22>KC5>CMC6>Sonosax SX-M2>Apogee Mini-me(24 Bit/96 khz,aes out)>COAX>Edirol R-44 +Soundboard>Channels 3&4 Edirol R-44
Club d'Elf
by Club d'Elf
69
0
0
Source: Schoeps MK 22>KC5>CMC6>Sonosax SX-M2>Apogee Mini-me(24 Bit/96 khz,aes out)>COAX>Edirol R-44 +Soundboard>Channels 3&4 Edirol R-44
Club d'Elf
by Club d'Elf
52
0
0
Source: Schoeps MK22>KC5>CMC6>Sonosax SX-M2>Apogee Mini-me(aes out@24 bit/96khz)>COAX>Edirol R-44
Club d'Elf
by Club d'Elf
32
0
0
Source: Schoeps MK22>KC5>CMC6>Sonosax SX-M2>Apogee Mini-me(@24 Bit 96khz aes out)>COAX>Edirol R-44
Club d'Elf
by Club d'Elf
117
0
0
Source: Schoeps MK21>KC5>CMC6>Sonosax SX-M2>Apogee Mini-me(@24 Bit 96khz aes out)>COAX>Edirol R-44
Club d'Elf
by Club d'Elf
39
0
0
Source: Schoeps MK22>KC5>CMC6>Sonosax SX-M2>Apogee Mini-me(@24 Bit 96khz aes out)>COAX>Edirol R-44
Club d'Elf
by Club d'Elf
45
0
0
Source: Schoeps MK 22>KC5>CMC6>Sonosax SX-M2>Apogee Mini-me(24 Bit/96 khz,aes out)>COAX>Edirol R-44 +Soundboard>Channels 3&4 Edirol R-44
Club d'Elf
by Club d'Elf
44
0
0
Source: Schoeps MK 4>KC5>CMC6>Sonosax SX-M2>Apogee Mini-me(24 Bit/96 khz,aes out)>COAX>Edirol R-44 +Soundboard>Channels 3&4 Edirol R-44